设为首页收藏本站每日签到 本站已运行

99看看

 找回密码
 立即注册

只需一步,快速开始

搜索
热搜: 活动 交友 discuz
查看: 160|回复: 12

【4K演示片】恍如人间仙境 冰岛寻梦之旅(三星H265编码)

[复制链接]

该用户从未签到

2万

主题

2万

帖子

6万

看看币

管理员

Rank: 9Rank: 9Rank: 9

积分
57742

论坛管理员

QQ
发表于 2017-12-18 10:55:37 | 显示全部楼层 |阅读模式
[color=rgb(65,]【[color=rgb(65,]4K演示片[color=rgb(65,]】恍如人间仙境 冰岛寻梦之旅 (UHD [color=rgb(65,]Samsung
游客,如果您要查看本帖隐藏内容请回复
H265编码)

115340j3mmbm4qr3m3k3rt.jpg

115341i51omnafeaaobv2f.jpg

115343d5m4sk8ck7v6v5ub.jpg

115344rbaobaroorcjzwco.jpg


     冰岛是欧洲北部的国家,位于北大西洋中部,靠近北极圈。在这个岛上可以领略到冰川、热泉、冰原、雪峰、活火山、火山岩荒漠、瀑布等千姿百态的自然风光。这里属寒温带海洋性气候,变化无常。因受北大西洋暖流影响,比同纬度的其他地方暖和。夏季日照长,冬季日照极短。秋季和冬初可见极光。到冰岛旅游,以夏天为较美。冰岛有着欧洲较清新的空气。冰岛还是世界上人口密度最小的一个国家之一。


General
ID                             : 0 (0x0)
Complete name            : E:\4K中国\Iceland[4k冰岛风景].ts
Format                         : MPEG-TS
File size                      : 967 MiB
Duration                       : 2mn 37s
Overall bit rate mode          : Constant
Overall bit rate               : 51.4 Mbps


Video
ID                                 : 257 (0x101)
Menu ID                         : 1 (0x1)
Format                           : HEVC
Format/Info                    : High Efficiency Video Coding
Codec ID                        : 36
Duration                         : 2mn 37s
Bit rate                           : 48.7 Mbps
Stream size                     : 912 MiB (94%)
Url                                 :4K123.COM


Audio
ID                                 : 258 (0x102)
Menu ID                        : 1 (0x1)
Format                          : AAC
Format/Info                   : Advanced Audio Codec
Format version               : Version 4
Format profile                : LC
Muxing mode                 : ADTS
Codec ID                       : 15
Duration                        : 2mn 36s
Bit rate mode                 : Variable
Bit rate                          : 126 Kbps
Channel(s)                     : 2 channels
Channel positions           : Front: L R
Sampling rate                 : 48.0 KHz
Compression mode         : Lossy
Stream size                    : 2.35 MiB (0%)


行驶在这片广袤无垠的土地上,就仿佛来到了陌生的外星球。


五大亮点:
1.Jokulsárlón浮冰湖(GlacialLagoon)

2.黄金大瀑布瀑布(GullfossWaterfall)

3.Geysir间歇泉

4. 蓝湖温泉 (Blue Lagoon)

5. Seljalandsfoss 瀑布(Waterfall)

百度盘:(此视频严重考验硬件配置,以及播放器要求)


链接:
游客,如果您要查看本帖隐藏内容请回复
密码: woy2
回复

使用道具 举报

  • TA的每日心情
    无聊
    2018-2-2 11:17
  • 签到天数: 3 天

    [LV.2]偶尔看看I

    0

    主题

    13

    帖子

    11

    看看币

    注册会员

    Rank: 1

    积分
    21
    发表于 2017-12-22 16:11:39 | 显示全部楼层
    asfasefgawe4tqwg
    回复 支持 反对

    使用道具 举报

  • TA的每日心情

    昨天 20:00
  • 签到天数: 68 天

    [LV.6]常住居民II

    0

    主题

    75

    帖子

    4239

    看看币

    终身VIP会员

    Rank: 18Rank: 18Rank: 18Rank: 18Rank: 18

    积分
    1816
    发表于 2017-12-26 04:37:56 | 显示全部楼层
    哈哈!这么好的资源不好好回贴,就太对不起楼主了.
    回复 支持 反对

    使用道具 举报

  • TA的每日心情
    郁闷
    2018-5-27 23:22
  • 签到天数: 16 天

    [LV.4]偶尔看看III

    0

    主题

    50

    帖子

    16

    看看币

    新手上路

    Rank: 2

    积分
    82
    发表于 2017-12-27 00:45:26 | 显示全部楼层
    XIEXIExia找下一个看看~~~~~~~~~~~
    回复 支持 反对

    使用道具 举报

  • TA的每日心情
    奋斗
    昨天 09:01
  • 签到天数: 182 天

    [LV.7]常住居民III

    0

    主题

    180

    帖子

    635

    看看币

    高级会员

    Rank: 4

    积分
    548
    发表于 2017-12-29 08:27:04 | 显示全部楼层
    漂亮的风景,谢谢分享
    回复 支持 反对

    使用道具 举报

  • TA的每日心情
    擦汗
    2018-1-23 10:50
  • 签到天数: 2 天

    [LV.1]初来乍到

    0

    主题

    9

    帖子

    7

    看看币

    注册会员

    Rank: 1

    积分
    13
    发表于 2018-1-23 11:00:35 | 显示全部楼层
    好风光,值得 观看。
    回复 支持 反对

    使用道具 举报

  • TA的每日心情
    擦汗
    2018-1-23 10:50
  • 签到天数: 2 天

    [LV.1]初来乍到

    0

    主题

    9

    帖子

    7

    看看币

    注册会员

    Rank: 1

    积分
    13
    发表于 2018-1-23 11:00:57 | 显示全部楼层
    好风光,值得 观看。
    回复 支持 反对

    使用道具 举报

  • TA的每日心情
    无聊
    6 天前
  • 签到天数: 128 天

    [LV.7]常住居民III

    0

    主题

    193

    帖子

    429

    看看币

    中级会员

    Rank: 3Rank: 3

    积分
    452
    发表于 2018-1-27 23:28:17 | 显示全部楼层
    这个资源我找了好多天,终于在99看看影视资源站找到了,高兴ing……,这个资源我找了好多天,终于在99看看影视资源站找到了,高兴ing……,这个资源我找了好多天,终于在99看看影视资源站找到了,高兴ing……,
    回复 支持 反对

    使用道具 举报

  • TA的每日心情
    难过
    2018-1-30 14:01
  • 签到天数: 1 天

    [LV.1]初来乍到

    0

    主题

    5

    帖子

    4

    看看币

    注册会员

    Rank: 1

    积分
    7
    发表于 2018-1-30 15:41:47 | 显示全部楼层
    恩爱克利夫兰你可能我过去啊
    回复 支持 反对

    使用道具 举报

  • TA的每日心情

    3 天前
  • 签到天数: 46 天

    [LV.5]常住居民I

    0

    主题

    58

    帖子

    60

    看看币

    新手上路

    Rank: 2

    积分
    158
    发表于 2018-3-10 12:36:51 | 显示全部楼层
    画面很美,谢谢分享!
    回复 支持 反对

    使用道具 举报

    您需要登录后才可以回帖 登录 | 立即注册

    本版积分规则

    QQ|Archiver|手机版|小黑屋|99看看 ( 蜀ICP备17021640号-5 )|网站地图点击这里给我发消息
    本网站所有资源来自网络,仅供学习和交流,如无意中侵犯了您的权益,请发邮件至 kankan99@foxmail.com,立即清除相关链接!

    GMT+8, 2018-6-21 06:42 , Processed in 0.086271 second(s), 30 queries , Xcache On.

    Powered by Discuz! X3.2

    © 2001-2013 Comsenz Inc.

    快速回复 返回顶部 返回列表