设为首页收藏本站每日签到 本站已运行

99看看

 找回密码
 立即注册

只需一步,快速开始

搜索
热搜: 活动 交友 discuz
查看: 209|回复: 1

[迅雷下载]缩小人生 Downsizing.2017.1080p.BluRay.x264.DTS-HD.MA.7.1-FGT 12.5GB ..

[复制链接]

该用户从未签到

2万

主题

2万

帖子

6万

看看币

管理员

Rank: 9Rank: 9Rank: 9

积分
57742

论坛管理员

QQ
发表于 2018-3-9 10:53:59 | 显示全部楼层 |阅读模式


译  名 缩小人生/缩身/缩水人间(港)/谁缩小了我的老公(豆友译名)
片  名 Downsizing
年  代 2017
产  地 美国
类  别 剧情/喜剧/科幻
语  言 英语
上映日期 2017-08-30(威尼斯电影节)/2017-12-22(美国)
IMDb评分  5.7/10 from 25,370 users
片  长 135分钟
导  演 亚历山大·佩恩 Alexander Payne
主  演 马特·达蒙 Matt Damon
      克里斯托弗·沃尔兹 Christoph Waltz
      周洪 Hong Chau
      克里斯汀·韦格 Kristen Wiig
      罗夫·拉斯加德 Rolf Lassg?rd
      英洁德·埃格伯格 Ingjerd Egeberg
      乌多·基尔 Udo Kier
      索伦·比尔马克 S?ren Pilmark
      杰妮·霍蒂谢尔 Jayne Houdyshell
      杰森·苏戴奇斯 Jason Sudeikis
      玛莉贝丝·梦露 Maribeth Monroe
      菲尔·里夫斯 Phil Reeves
      布里盖特·伦迪·佩恩 Brigette Lundy-Paine
      詹姆斯·范德比克 James Van Der Beek
      艾丽森·J·帕尔默 Alison J. Palmer
      蒂姆·德里斯科尔 Tim Driscoll
      凯文·孔克尔 Kevin Kunkel
      派崔克·盖勒 Patrick Gallagher
      安娜·玛丽·考克斯 Ana Marie Cox
      罗兰·马丁 Roland Martin
      尼尔·帕特里克·哈里斯 Neil Patrick Harris
      劳拉·邓恩 Laura Dern
      南希·纳什 Niecy Nash
      玛格·马丁戴尔 Margo Martindale
      凯瑞·肯妮 Kerri Kenney
      唐·雷克 Don Lake
      玛丽·凯·普莱斯 Mary Kay Place


简  介


  在《缩身》中,亚历山大·佩恩描写了一对财政紧张的夫妇,为了节省开支他们决定“缩身”——把自己变得更小,这样日常消耗也就少多了。然而在缩身开始前的最后一秒,妻子退怯了,只有丈夫进行了缩身。由此带来的结果是,迷你小丈夫(马特·戴蒙)与妻子在很多方面开始出现不和谐,夫妻关系陷入紧张。


获奖情况


  第74届威尼斯电影节  (2017)
  主竞赛单元 金狮奖 (提名) 亚历山大·佩恩


  第75届金球奖  (2018)
  电影类 最佳女配角(提名) 周洪


  第24届美国演员工会奖  (2018)
  电影奖 最佳女配角(提名) 周洪


  第22届美国艺术指导工会奖  (2018)
  电影奖 最佳当代电影艺术指导(提名)


  第16届美国视觉效果协会奖  (2018)
  最佳电影辅助视觉效果(提名)


  第89届美国国家评论协会奖  (2017)
  年度佳片


  第23届美国评论家选择电影奖  (2018)
  最佳女配角(提名) 周洪


  第22届金卫星奖  (2018)
  电影部门 最佳美术指导(提名)


Video
ID                                       : 1
Format                                   : AVC
Format/Info                              : Advanced Video Codec
Format profile                           : Hig4.1
Format settings                          : CABAC / 5 Ref Frames
Format settings, CABAC                   : Yes
Format settings, ReFrames                : 5 frames
Codec ID                                 : V_MPEG4/ISO/AVC
Duration                                 : 2 h 15 min
Bit rate                                 : 8 898 kb/s
Width                                    : 1 920 pixels
Height                                   : 808 pixels
Display aspect ratio                     : 2.40:1
Frame rate mode                          : Constant
Frame rate                               : 23.976 (24000/1001) FPS
Color space                              : YUV
Chroma subsampling                       : 4:2:0
Bit depth                                : 8 bits
Scan type                                : Progressive
Bits/(Pixel*Frame)                       : 0.239
Stream size                              : 8.41 GiB (67%)
Title                                    : Downsizing.2017.1080p.BluRay.x264.DTS-HD.MA.7.1-FGT
Writing library                          : x264 core 155 r2901 7d0ff22
Encoding settings                        : cabac=1 / ref=5 / deblock=1:-3:-3 / analyse=0x3:0x133 / me=umh / subme=8 / psy=1 / psy_rd=1.00:0.00 / mixed_ref=1 / me_range=16 / chroma_me=1 / trellis=1 / 8x8dct=1 / cqm=0 / deadzone=21,11 / fast_pskip=0 / chroma_qp_offset=-2 / threads=25 / lookahead_threads=4 / sliced_threads=0 / nr=0 / decimate=1 / interlaced=0 / bluray_compat=0 / constrained_intra=0 / bframes=3 / b_pyramid=2 / b_adapt=1 / b_bias=0 / direct=3 / weightb=1 / open_gop=0 / weightp=2 / keyint=250 / keyint_min=23 / scenecut=40 / intra_refresh=0 / rc_lookahead=50 / rc=2pass / mbtree=1 / bitrate=8898 / ratetol=1.0 / qcomp=0.60 / qpmin=0 / qpmax=69 / qpstep=4 / cplxblur=20.0 / qblur=0.5 / vbv_maxrate=62500 / vbv_bufsize=78125 / nal_hrd=none / filler=0 / ip_ratio=1.40 / aq=1:1.00
Default                                  : Yes
Forced                                   : No

Audio
ID                                       : 2
Format                                   : DTS
Format/Info                              : Digital Theater Systems
Format profile                           : MA / Core
Codec ID                                 : A_DTS
Duration                                 : 2 h 15 min
Bit rate mode                            : Variable / Constant
Bit rate                                 : 4 370 kb/s / 1 509 kb/s
Channel(s)                               : 8 channels / 6 channels
Channel positions                        : Front: L C R, Side: L R, Back: L R, LFE / Front: L C R, Side: L R, LFE
Sampling rate                            : 48.0 kHz
Frame rate                               : 93.750 FPS (512 SPF)
Bit depth                                : 24 bits
Compression mode                         : Lossless / Lossy
Stream size                              : 4.13 GiB (33%)
Title                                    : Downsizing.2017.1080p.BluRay.x264.DTS-HD.MA.7.1-FGT
Language                                 : English
Default                                  : Yes
Forced                                   : No

Text
ID                                       : 3
Format                                   : UTF-8
Codec ID                                 : S_TEXT/UTF8
Codec ID/Info                            : UTF-8 Plain Text
Duration                                 : 2 h 4 min
Bit rate                                 : 58 b/s
Count of elements                        : 1634
Stream size                              : 53.5 KiB (0%)
Title                                    : English-SRT
Language                                 : English
Default                                  : Yes
Forced                                   : No

Menu
00:00:00.000                             : en:00:00:00.000
00:06:13.540                             : en:00:06:13.540
00:10:38.346                             : en:00:10:38.346
00:16:24.483                             : en:00:16:24.483
00:22:14.667                             : en:00:22:14.667
00:30:23.905                             : en:00:30:23.905
00:38:44.364                             : en:00:38:44.364
00:42:38.598                             : en:00:42:38.598
00:47:36.687                             : en:00:47:36.687
00:55:08.722                             : en:00:55:08.722
01:04:35.830                             : en:01:04:35.830
01:13:11.596                             : en:01:13:11.596
01:21:13.202                             : en:01:21:13.202
01:28:00.775                             : en:01:28:00.775
01:33:25.308                             : en:01:33:25.308
01:41:42.513                             : en:01:41:42.513
01:44:11.871                             : en:01:44:11.871
01:51:54.374                             : en:01:51:54.374
01:58:36.443                             : en:01:58:36.443
02:08:58.856                             : en:02:08:58.856










Downsizing.2017.1080p.BluRay.x264.DTS-HD.MA.7.1-FGT[99看看99kankan.net][99看看].torrent (63.24 KB, 下载次数: 42)
回复

使用道具 举报

  • TA的每日心情

    昨天 14:10
  • 签到天数: 378 天

    [LV.9]以坛为家II

    60

    主题

    1994

    帖子

    42

    看看币

    论坛元老

    Rank: 8Rank: 8

    积分
    4869
    发表于 2018-3-13 00:51:05 | 显示全部楼层
    沙发~感谢99看看影视资源站,支持楼主
    回复 支持 反对

    使用道具 举报

    您需要登录后才可以回帖 登录 | 立即注册

    本版积分规则

    QQ|Archiver|手机版|小黑屋|99看看 ( 蜀ICP备17021640号-5 )|网站地图点击这里给我发消息
    本网站所有资源来自网络,仅供学习和交流,如无意中侵犯了您的权益,请发邮件至 kankan99@foxmail.com,立即清除相关链接!

    GMT+8, 2018-6-21 06:25 , Processed in 0.074834 second(s), 30 queries , Xcache On.

    Powered by Discuz! X3.2

    © 2001-2013 Comsenz Inc.

    快速回复 返回顶部 返回列表